<?xml version="1.0" standalone="no"?>
<!DOCTYPE svg PUBLIC "-//W3C//DTD SVG 1.1//EN" "http://www.w3.org/Graphics/SVG/1.1/DTD/svg11.dtd" >
<svg xmlns="http://www.w3.org/2000/svg">
<metadata>
This is a custom SVG webfont generated by Font Squirrel.
Copyright   : Copyright  1990 1991 1998 2002 Adobe Systems Incorporated  All Rights Reserved   Copyright 1989 1990 1998 2002 The Monotype Corporation PLC All Rights Reserved
Designer    : Eric Gill
Foundry URL : httpwwwadobecomtype
</metadata>
<defs>
<font id="webfontwrsMCslZ" horiz-adv-x="1024" >
<font-face units-per-em="2048" ascent="1397" descent="-651" />
<missing-glyph horiz-adv-x="569" />
<glyph unicode=" "  horiz-adv-x="569" />
<glyph unicode="&#x09;" horiz-adv-x="569" />
<glyph unicode="&#xa0;" horiz-adv-x="569" />
<glyph unicode="!" horiz-adv-x="362" d="M115 0v199h133v-199h-133zM115 1397h133l-35 -1004h-63z" />
<glyph unicode="&#x22;" horiz-adv-x="569" d="M76 1178v223h135v-223l-25 -256h-86zM358 1178v223h136v-223l-25 -256h-86z" />
<glyph unicode="#" horiz-adv-x="1351" d="M158 430v94h190l80 391h-270v95h291l86 420h94l-86 -420h389l88 420h94l-88 -420h168v-95h-186l-82 -391h268v-94h-289l-86 -416h-94l86 416h-389l-86 -416h-94l86 416h-170zM442 524h389l82 391h-391z" />
<glyph unicode="$" horiz-adv-x="1067" d="M72 145v113q121 -88 209 -126t202 -54v567q-205 61 -303 151.5t-98 217.5q0 53 21.5 106.5t64.5 105.5t125 87t190 41v61h99v-61q113 -8 186.5 -35t163.5 -90v-115q-96 70 -172 101.5t-178 41.5v-534q205 -55 307 -147.5t102 -235.5q0 -51 -20.5 -105.5t-64.5 -110.5 t-128 -95t-196 -47v-222h-99v222q-241 18 -411 163zM186 1020q0 -184 297 -266v503q-133 -2 -215 -74.5t-82 -162.5zM582 78q131 6 218 79.5t87 176.5q0 100 -69.5 163.5t-235.5 114.5v-534z" />
<glyph unicode="%" horiz-adv-x="1429" d="M39 1085.5q0 137.5 96 233.5t234 96q135 0 232 -96t97 -233.5t-97 -233.5t-232 -96q-137 0 -233.5 96t-96.5 233.5zM94 -23l1127 1432h100l-1124 -1432h-103zM127 1085q0 -100 70.5 -170.5t171 -70.5t171 70.5t70.5 171t-70.5 171t-171 70.5t-171 -72t-70.5 -170z M731 305q0 137 96.5 233.5t233.5 96.5q135 0 232.5 -96.5t97.5 -233.5t-97.5 -233.5t-232.5 -96.5q-137 0 -233.5 96.5t-96.5 233.5zM819 305q0 -100 71 -171t171 -71t171 71t71 171.5t-71 171t-171 70.5t-171 -72t-71 -170z" />
<glyph unicode="&#x26;" horiz-adv-x="1259" d="M53 313q0 133 89 244t257 182q-90 94 -132 170t-42 156q0 129 96.5 217t235.5 88q131 0 218 -82t87 -207q0 -221 -293 -370l318 -330q94 143 153 315h115q-66 -205 -192 -395l284 -301h-137l-211 219q-106 -121 -218 -179t-263 -58q-164 0 -264.5 90.5t-100.5 240.5z M170 328q0 -117 71.5 -181.5t198.5 -64.5q209 0 385 213l-354 369q-160 -70 -230.5 -147.5t-70.5 -188.5zM330 1071q0 -129 170 -285q262 106 262 285q0 86 -60.5 142.5t-150.5 56.5q-94 0 -157.5 -57.5t-63.5 -141.5z" />
<glyph unicode="'" horiz-adv-x="454" d="M160 1178v223h135v-223l-25 -256h-86z" />
<glyph unicode="(" horiz-adv-x="681" d="M164 473q0 543 399 942h103q-193 -176 -295.5 -430t-102.5 -512t102.5 -513t297.5 -431h-103q-401 401 -401 944z" />
<glyph unicode=")" horiz-adv-x="681" d="M14 -471q195 176 297.5 431t102.5 513t-102.5 512t-297.5 430h103q401 -401 401 -942q0 -543 -401 -944h-103z" />
<glyph unicode="*" horiz-adv-x="960" d="M66 954v95l372 -37l2 12l-286 231l71 72l234 -285l10 5l-37 368h94l-34 -366l10 -7l237 285l70 -72l-287 -231l4 -10l369 33v-97l-369 41l-6 -12l289 -234l-70 -69l-237 289l-10 -2l34 -379h-94l37 379l-8 2l-236 -289l-71 69l290 234l-4 10z" />
<glyph unicode="+" horiz-adv-x="1351" d="M139 674v90h492v491h90v-491h491v-90h-491v-492h-90v492h-492z" />
<glyph unicode="," horiz-adv-x="362" d="M115 0v199h133v-156q0 -82 -34 -159t-99 -124v72q43 66 43 168h-43z" />
<glyph unicode="-" horiz-adv-x="641" d="M78 414v96h485v-96h-485z" />
<glyph unicode="." horiz-adv-x="362" d="M115 0v199h133v-199h-133z" />
<glyph unicode="/" horiz-adv-x="575" d="M6 -18l451 1433h94l-449 -1433h-96z" />
<glyph unicode="0" d="M66 674q0 438 190 629q113 113 256 112.5t252 -108.5q195 -195 194 -615q0 -328 -128 -519t-314 -191q-199 0 -324.5 191.5t-125.5 500.5zM170 698q0 -274 94 -446t244 -172q109 0 189.5 88t118.5 227.5t38 306.5q0 158 -35 293t-114.5 228.5t-192.5 93.5 q-150 0 -246 -173.5t-96 -445.5z" />
<glyph unicode="1" d="M459 0v1397h104v-1397h-104z" />
<glyph unicode="2" d="M76 0q647 623 647 1012q0 131 -90 218t-223 87q-82 0 -151 -33t-167 -119v123q156 127 326 127q172 0 290.5 -116.5t118.5 -284.5q0 -332 -514 -918h650v-96h-887z" />
<glyph unicode="3" d="M139 51v96q143 -68 310 -67q145 0 235 82t90 215q0 143 -96 227t-264 82v98q158 0 251 80t93 191q0 113 -91.5 187.5t-228.5 74.5q-150 0 -286 -92v100q123 90 294 90q182 0 299 -98t117 -254q0 -109 -63.5 -195t-190.5 -125v-4q270 -90 271 -356q0 -195 -128 -298 t-290 -103q-179 -1 -322 69z" />
<glyph unicode="4" d="M29 539v34l702 842h39v-792h195v-84h-195v-539h-104v539h-637zM174 623h492v589h-4z" />
<glyph unicode="5" d="M84 74v119q197 -113 340 -113q150 0 247 97t97 249q0 111 -48 190.5t-128 115.5t-182.5 42t-210.5 -29v652h592v-97h-494v-442q250 37 412.5 -78.5t162.5 -345.5q0 -195 -129 -323.5t-323 -128.5q-160 0 -336 92z" />
<glyph unicode="6" d="M125 473q0 274 151.5 503.5t430.5 438.5l61 -74q-211 -147 -350 -331.5t-170 -362.5q147 109 309 109q168 0 279.5 -108.5t111.5 -272.5q0 -172 -111.5 -282.5t-285.5 -110.5q-195 0 -310.5 133t-115.5 358zM229 526q-23 -203 69.5 -324.5t246.5 -121.5q127 0 213 81 t86 199q0 125 -87 211t-214 86q-162 0 -314 -131z" />
<glyph unicode="7" d="M59 1300v97h914l-639 -1415l-90 38l577 1280h-762z" />
<glyph unicode="8" d="M115 373q0 229 209 354q-182 123 -183 315q0 152 109.5 262.5t259.5 110.5q154 0 263.5 -109.5t109.5 -261.5q0 -197 -178 -317q207 -125 206 -346q0 -168 -114.5 -283.5t-280.5 -115.5q-168 0 -284.5 113.5t-116.5 277.5zM219 377q0 -123 85 -210t212 -87q129 0 210 87 t81 220q0 121 -86 204t-211 83q-123 0 -207 -87t-84 -210zM246 1044.5q0 -114.5 77.5 -193.5t190.5 -79q115 0 189.5 79t74.5 198q0 113 -77.5 190.5t-190.5 77.5q-111 0 -187.5 -79t-76.5 -193.5z" />
<glyph unicode="9" d="M66 1026q0 170 110.5 279.5t282.5 109.5q201 0 315.5 -131t114.5 -358q0 -520 -594 -944l-57 75q250 182 370.5 349t153.5 342q-166 -104 -307 -105q-166 0 -277.5 109.5t-111.5 273.5zM170 1032q0 -125 82 -208t207 -83q176 0 321 131q16 203 -65.5 324t-249.5 121 q-123 0 -209 -81t-86 -204z" />
<glyph unicode=":" horiz-adv-x="362" d="M115 0v199h133v-199h-133zM115 721v199h133v-199h-133z" />
<glyph unicode=";" horiz-adv-x="362" d="M115 0v199h133v-156q0 -82 -34 -159t-99 -124v72q43 66 43 168h-43zM115 721v199h133v-199h-133z" />
<glyph unicode="&#x3c;" horiz-adv-x="1351" d="M139 674v86l1073 450v-100l-950 -393l950 -393v-101z" />
<glyph unicode="=" horiz-adv-x="1351" d="M139 426v90h1073v-90h-1073zM139 920v90h1073v-90h-1073z" />
<glyph unicode="&#x3e;" horiz-adv-x="1351" d="M139 223v101l951 393l-951 393v100l1073 -450v-86z" />
<glyph unicode="?" horiz-adv-x="575" d="M51 1219l47 159q74 37 140 37q115 0 185.5 -80t70.5 -211q0 -98 -41 -192t-91.5 -155.5t-91.5 -137.5t-41 -143q0 -61 39 -129l-37 -29q-80 92 -79 188q0 68 36.5 148t81.5 142.5t82 149.5t37 169q0 80 -45 136t-108 56q-98 0 -164 -108h-21zM174 0v199h133v-199h-133z " />
<glyph unicode="@" horiz-adv-x="1638" d="M-4 535q0 131 31.5 254.5t100.5 238.5t169 200t247.5 136t325.5 51q190 0 339 -65.5t233 -173t126 -231.5t42 -257q0 -287 -169 -477.5t-347 -190.5q-152 0 -113 181l-4 4q-154 -184 -338 -185q-150 0 -248 120t-98 302q0 242 149.5 429.5t364.5 187.5q92 0 173 -48 t126 -145h4l33 168h125l-170 -803q-16 -63 -10 -91.5t47 -28.5q51 0 115.5 38.5t127 107.5t105.5 183.5t43 247.5q0 84 -17.5 166t-64.5 171t-119 155.5t-192.5 109.5t-274.5 43q-342 0 -560 -224t-218 -577q0 -348 218 -562t570 -214q438 0 672 312h102 q-113 -193 -322.5 -293.5t-453.5 -100.5q-389 0 -629.5 238t-240.5 623zM420 436q0 -137 72.5 -228t183 -91t203 99t137.5 229t45 243q0 123 -71.5 203t-184.5 80q-123 0 -215 -95.5t-131 -213t-39 -226.5z" />
<glyph unicode="A" horiz-adv-x="1366" d="M8 0l645 1407h60l645 -1407h-113l-221 483h-682l-221 -483h-113zM383 573h600l-301 658z" />
<glyph unicode="B" horiz-adv-x="1087" d="M164 0v1397h291q135 0 230 -33t144.5 -88t70 -113.5t20.5 -126.5q0 -201 -201 -311q324 -68 323 -354q0 -172 -127 -271.5t-342 -99.5h-409zM272 90h289q197 0 281 84t84 199q0 287 -412 286h-242v-569zM272 750h150q381 0 381 278.5t-385 278.5h-146v-557z" />
<glyph unicode="C" horiz-adv-x="1386" d="M100 696q0 311 218.5 515t515.5 204q236 0 491 -117v-118q-256 135 -498 135q-262 0 -436 -176t-174 -443q0 -270 175 -442t450 -172q225 0 497 143v-112q-246 -131 -495 -131q-319 0 -531.5 203.5t-212.5 510.5z" />
<glyph unicode="D" horiz-adv-x="1515" d="M162 0v1397h489q172 0 307.5 -44t218.5 -113t138 -163t76.5 -187t21.5 -192q0 -129 -40 -246.5t-123 -222t-232.5 -167t-347.5 -62.5h-508zM270 90h394q266 0 449 163t183 445q0 268 -177 438.5t-462 170.5h-387v-1217z" />
<glyph unicode="E" horiz-adv-x="1003" d="M164 0v1397h762v-90h-654v-559h637v-91h-637v-567h670v-90h-778z" />
<glyph unicode="F" horiz-adv-x="897" d="M160 0v1397h719v-90h-611v-531h551v-90h-551v-686h-108z" />
<glyph unicode="G" horiz-adv-x="1472" d="M102 702q0 307 213 510t537 203q215 0 479 -119v-122q-250 141 -495 141q-266 0 -441.5 -175t-175.5 -442q0 -121 40 -229.5t118 -195.5t204 -139t285 -52q211 0 383 86v377h-295v90h404v-535q-246 -119 -496 -118q-326 0 -543 205.5t-217 514.5z" />
<glyph unicode="H" horiz-adv-x="1472" d="M162 0v1397h108v-645h932v645h109v-1397h-109v662h-932v-662h-108z" />
<glyph unicode="I" horiz-adv-x="425" d="M160 0v1397h108v-1397h-108z" />
<glyph unicode="J" horiz-adv-x="425" d="M-92 -301q35 -8 66 -8q77 0 125 51q69 72 69 229v1426h108v-1397q0 -229 -83 -313q-63 -63 -120 -82q-36 -12 -90 -12q-30 0 -65 4z" />
<glyph unicode="K" horiz-adv-x="1087" d="M156 0v1397h108v-697l670 697h135l-666 -697l730 -700h-138l-731 698v-698h-108z" />
<glyph unicode="L" horiz-adv-x="960" d="M162 0v1397h108v-1307h691v-90h-799z" />
<glyph unicode="M" horiz-adv-x="1599" d="M158 0v1397h108l533 -649l532 649h109v-1397h-109v1239h-4l-528 -653l-529 653h-4v-1239h-108z" />
<glyph unicode="N" horiz-adv-x="1579" d="M160 0v1397h92l1059 -1221v1221h108v-1397h-90l-1061 1221v-1221h-108z" />
<glyph unicode="O" horiz-adv-x="1685" d="M104 698q0 301 214 509t524 208q311 0 526 -208t215 -509t-215 -508.5t-526 -207.5q-309 0 -523.5 207.5t-214.5 508.5zM221 698q0 -260 181.5 -438t443.5 -178t441 178t179 438t-179 438.5t-441 178.5t-443.5 -178.5t-181.5 -438.5z" />
<glyph unicode="P" horiz-adv-x="1044" d="M160 0v1397h385q231 0 343.5 -102.5t112.5 -266.5q0 -72 -22.5 -135.5t-73.5 -118.5t-146 -88t-224 -33h-267v-653h-108zM268 743h260q184 0 270.5 78t86.5 205q0 123 -85 202t-259 79h-273v-564z" />
<glyph unicode="Q" horiz-adv-x="1685" d="M104 696q0 305 211 512t527 207q317 0 529 -204.5t212 -510.5q0 -76 -17.5 -156.5t-64.5 -175t-117.5 -170t-190.5 -136t-269 -80.5q100 -72 221 -118t217 -46q66 0 137 51l23 -21l-121 -141q-362 45 -635 275q-291 23 -476.5 232.5t-185.5 481.5zM221 698 q0 -256 179.5 -436t437.5 -180q260 0 444 179t184 437q0 260 -180 438.5t-442 178.5q-260 0 -441.5 -180.5t-181.5 -436.5z" />
<glyph unicode="R" horiz-adv-x="1173" d="M162 0v1397h358q240 0 351.5 -102.5t111.5 -258.5q0 -242 -266 -340q70 -37 186 -213l316 -483h-127l-244 383q-121 193 -189.5 240t-199.5 47h-189v-670h-108zM270 760h232q180 0 272 72.5t92 201.5q0 125 -92 199t-276 74h-228v-547z" />
<glyph unicode="S" horiz-adv-x="960" d="M94 1044q0 156 118 263.5t284 107.5q162 0 323 -88v-119q-106 61 -173.5 84t-139.5 23q-125 0 -210 -76t-85 -190q0 -86 49 -145.5t123 -88.5l161 -64q87 -36 160.5 -74t123 -118t49.5 -194q0 -162 -118 -272.5t-288 -110.5q-174 0 -358 122v127q117 -84 193.5 -116.5 t158.5 -32.5q125 0 210 80t85 198q0 109 -68.5 177.5t-166.5 104.5l-195 75q-98 39 -167 119.5t-69 207.5z" />
<glyph unicode="T" horiz-adv-x="1173" d="M8 1307v90h1157v-90h-524v-1307h-109v1307h-524z" />
<glyph unicode="U" horiz-adv-x="1429" d="M131 610v787h109v-783q0 -260 136 -396t339 -136q199 0 338 135t139 412v768h108v-762q0 -172 -50 -303t-136 -205t-186.5 -109.5t-212.5 -35.5q-250 0 -417 163.5t-167 464.5z" />
<glyph unicode="V" horiz-adv-x="1216" d="M6 1397h109l495 -1182l492 1182h108l-585 -1411h-31z" />
<glyph unicode="W" horiz-adv-x="2111" d="M-2 1397h111l462 -1159l469 1159h33l467 -1159l463 1159h111l-562 -1411h-26l-469 1179l-469 -1179h-29z" />
<glyph unicode="X" horiz-adv-x="1409" d="M0 0l633 715l-600 682h139l533 -602l530 602h139l-600 -682l635 -715h-139l-565 639l-566 -639h-139z" />
<glyph unicode="Y" horiz-adv-x="1193" d="M0 1397h131l467 -553l465 553h131l-543 -647v-750h-108v750z" />
<glyph unicode="Z" horiz-adv-x="1300" d="M18 31l1047 1276h-999v90h1167l10 -39l-1046 -1268h1054v-90h-1222z" />
<glyph unicode="[" horiz-adv-x="618" d="M141 -451v1848h463v-97h-364v-1654h364v-97h-463z" />
<glyph unicode="\" horiz-adv-x="575" d="M25 1415h96l448 -1433h-94z" />
<glyph unicode="]" horiz-adv-x="618" d="M14 -354h365v1654h-365v97h463v-1848h-463v97z" />
<glyph unicode="^" horiz-adv-x="1351" d="M227 879l449 536l448 -536l-65 -54l-383 461l-385 -461z" />
<glyph unicode="_" d="M-12 -154h1048v-102h-1048v102z" />
<glyph unicode="`" horiz-adv-x="681" d="M158 1386h166l213 -319h-68z" />
<glyph unicode="a" horiz-adv-x="874" d="M74 215q0 113 81 189.5t195.5 108.5t259.5 38v117q0 188 -204 188q-72 0 -134.5 -26.5t-146.5 -90.5v101q160 98 297 98q68 0 127 -18.5t109.5 -75t50.5 -146.5v-573q0 -47 22 -47q27 0 131 82v-82l-16 -12q-111 -84 -170 -84q-33 0 -46.5 22.5t-19.5 91.5 q-147 -115 -288 -114q-104 0 -176 68.5t-72 164.5zM172 215q0 -66 52 -109t130 -43q123 0 256 119v287q-19 1 -37 1q-159 0 -273 -64q-128 -72 -128 -191z" />
<glyph unicode="b" horiz-adv-x="1044" d="M127 51v1346h98v-609q78 78 153 114t179 36q180 0 295 -125t115 -324q0 -231 -140.5 -369t-373.5 -138q-150 -1 -326 69zM225 121q115 -43 226 -43q180 0 295.5 114.5t115.5 290.5q0 162 -89 267.5t-228 105.5q-162 0 -320 -178v-557z" />
<glyph unicode="c" horiz-adv-x="854" d="M86 446q0 217 125 354.5t321 137.5q102 0 244 -45v-109q-135 57 -239 58q-154 0 -250.5 -106.5t-96.5 -278.5q0 -174 96.5 -276.5t258.5 -102.5q115 0 248 53v-102q-141 -47 -256 -47q-203 0 -327 127.5t-124 336.5z" />
<glyph unicode="d" horiz-adv-x="1044" d="M84 461q0 207 132 342t333 135q123 0 272 -74v533h99v-1397h-99v72q-131 -90 -272 -90q-197 0 -331 138t-134 341zM188 467q0 -168 110 -278.5t275 -110.5q123 0 248 84v594q-135 86 -268 86q-160 0 -262.5 -105.5t-102.5 -269.5z" />
<glyph unicode="e" horiz-adv-x="980" d="M82 471q0 203 120 335t302 132q164 0 285.5 -114.5t121.5 -329.5h-725q-3 -26 -3 -52q0 -139 96 -242q113 -122 274 -122q172 0 342 137v-111q-160 -123 -354 -122q-201 0 -330 138t-129 351zM199 573h596q-51 268 -291 269q-115 0 -196.5 -72t-108.5 -197z" />
<glyph unicode="f" horiz-adv-x="491" d="M23 840v80h170v151q0 166 96 255t223 89q70 0 168 -39v-92q-102 35 -166 35q-115 0 -169 -69.5t-54 -215.5v-114h178v-80h-178v-840h-98v840h-170z" />
<glyph unicode="g" horiz-adv-x="874" d="M37 -225q0 88 69.5 145t198.5 78v4q-150 35 -149 131q0 57 46 89t138 61v4q-127 37 -186.5 123t-59.5 182q0 133 94.5 230.5t296.5 97.5h369v-80h-209q127 -119 127 -244q0 -115 -54 -187.5t-131 -101t-153 -46t-130 -45.5t-54 -75t45 -68.5t111.5 -22.5t144.5 -10 t144.5 -25.5t111.5 -71t45 -146.5q0 -127 -109.5 -197.5t-302.5 -70.5q-201 0 -302 70t-101 176zM131 -219q0 -82 82 -126t233 -44q141 0 226.5 48t85.5 130q0 162 -293 162q-334 0 -334 -170zM188 598q0 -104 70 -177t174 -73q100 0 173 72t73 174q0 100 -73 172t-175 72 t-172 -70t-70 -170z" />
<glyph unicode="h" horiz-adv-x="1003" d="M127 0v1397h98v-637h4q63 96 133 137t170 41q154 0 248 -98.5t94 -276.5v-563h-98v524q0 317 -250 318q-98 0 -166.5 -47t-134.5 -150v-645h-98z" />
<glyph unicode="i" horiz-adv-x="385" d="M143 0v920h99v-920h-99zM143 1229v168h99v-168h-99z" />
<glyph unicode="j" horiz-adv-x="385" d="M-57 -387q100 4 148 66.5t48 220.5v1020h99v-1022q0 -184 -78 -278q-76 -91 -190 -91h-5zM139 1229v168h99v-168h-99z" />
<glyph unicode="k" horiz-adv-x="874" d="M121 0v1397h98v-1397h-98zM233 483l508 437h129l-503 -437l581 -483h-135z" />
<glyph unicode="l" horiz-adv-x="385" d="M143 0v1397h99v-1397h-99z" />
<glyph unicode="m" horiz-adv-x="1579" d="M123 0v920h98v-162h4q61 96 130 138t163 42q209 0 297 -221q70 117 145.5 169t174.5 52q145 0 232 -102.5t87 -270.5v-565h-98v522q0 143 -61.5 231.5t-178.5 88.5q-84 0 -146.5 -49.5t-131.5 -165.5v-627h-99v524q0 160 -68.5 239t-172.5 79q-84 0 -148.5 -45 t-128.5 -152v-645h-98z" />
<glyph unicode="n" horiz-adv-x="1003" d="M127 0v920h98v-160h4q63 96 133 137t170 41q154 0 248 -98.5t94 -278.5v-561h-98v524q0 156 -64.5 237t-185.5 81q-98 0 -167.5 -47t-133.5 -150v-645h-98z" />
<glyph unicode="o" horiz-adv-x="1110" d="M86 459q0 205 134 342t335 137t334 -136t133 -343q0 -205 -133 -341t-334 -136t-335 136t-134 341zM190 459q0 -164 103.5 -272.5t261.5 -108.5q156 0 259.5 108.5t103.5 272.5t-103.5 273.5t-259.5 109.5q-158 0 -261.5 -108.5t-103.5 -274.5z" />
<glyph unicode="p" horiz-adv-x="1044" d="M129 -471v1391h98v-52q141 70 277 70q197 0 325.5 -135t128.5 -340q0 -203 -133 -342t-325 -139q-131 0 -273 69v-522h-98zM227 147q129 -70 254 -69q166 0 267.5 103.5t101.5 273.5q0 168 -107.5 277.5t-273.5 109.5q-115 0 -242 -68v-627z" />
<glyph unicode="q" horiz-adv-x="1044" d="M76 442q0 213 130 354.5t324 141.5q137 0 287 -82v64h98v-1391h-98v524q-158 -72 -301 -71q-195 0 -317.5 128.5t-122.5 331.5zM180 434q0 -164 97.5 -263t259.5 -99q137 0 280 80v608q-137 82 -266 82q-158 0 -264.5 -117t-106.5 -291z" />
<glyph unicode="r" horiz-adv-x="681" d="M129 0v920h98v-242h4q164 260 322 260q88 0 211 -109l-57 -92q-115 104 -185 105q-139 0 -295 -264v-578h-98z" />
<glyph unicode="s" horiz-adv-x="724" d="M84 66v96q166 -84 289 -84q84 0 139 45t55 115q0 59 -49 101t-119.5 67.5t-140.5 55.5t-119 86t-49 138q0 106 86 179t211 73q111 0 246 -78v-106q-143 94 -252 94q-84 0 -140.5 -45t-56.5 -111q0 -59 49.5 -100t120 -65.5t140 -54.5t119 -89t49.5 -147 q0 -109 -87.5 -181.5t-214.5 -72.5q-139 0 -276 84z" />
<glyph unicode="t" horiz-adv-x="618" d="M-39 840v80h248v219l67 86h31v-305h258v-80h-258v-547q0 -72 2 -102.5t15.5 -62.5t41 -41t78.5 -9q68 0 168 45v-94q-23 -12 -84 -31q-70 -16 -106 -16q-86 0 -149.5 50t-63.5 146v662h-248z" />
<glyph unicode="u" horiz-adv-x="1003" d="M127 350v570h98v-568q0 -133 72 -203.5t180 -70.5q102 0 168 47t131 149v646h98v-920h-98v152h-4q-66 -92 -132.5 -131t-170.5 -39q-137 0 -239.5 90t-102.5 278z" />
<glyph unicode="v" horiz-adv-x="874" d="M0 920h100l346 -775l332 775h96l-395 -938h-61z" />
<glyph unicode="w" horiz-adv-x="1449" d="M0 920h96l314 -750l288 750h54l280 -750l320 750h98l-397 -938h-47l-283 747l-285 -747h-45z" />
<glyph unicode="x" horiz-adv-x="980" d="M12 0l420 471l-420 449h127l361 -381l360 381h127l-422 -449l422 -471h-127l-360 403l-361 -403h-127z" />
<glyph unicode="y" horiz-adv-x="854" d="M12 920h103l334 -644l317 644h100l-688 -1391h-100l321 649z" />
<glyph unicode="z" horiz-adv-x="811" d="M20 31l609 798h-570v91h721l8 -31l-604 -799h604v-90h-757z" />
<glyph unicode="{" horiz-adv-x="681" d="M100 397v131q106 2 149.5 78t43.5 258v199q0 180 72.5 261t220.5 73v-111q-104 0 -142 -43t-38 -180v-199q0 -166 -47.5 -264t-151.5 -137q104 -39 151.5 -137.5t47.5 -264.5v-198q0 -137 37.5 -180t142.5 -43v-111q-147 -8 -220 73t-73 261v198q0 182 -43.5 258 t-149.5 78z" />
<glyph unicode="|" horiz-adv-x="454" d="M176 -512v2048h98v-2048h-98z" />
<glyph unicode="}" horiz-adv-x="681" d="M96 -360q104 0 142 43t38 180v198q0 166 47.5 264.5t151.5 137.5q-104 39 -151.5 137t-47.5 264v199q0 137 -37.5 180t-142.5 43v111q147 8 220 -73t73 -261v-199q0 -182 43 -258t150 -78v-131q-106 -2 -149.5 -77.5t-43.5 -258.5v-198q0 -180 -72.5 -261t-220.5 -73v111 z" />
<glyph unicode="~" horiz-adv-x="1351" d="M137 596v111q166 121 287 120q80 0 262 -80.5t242 -80.5q57 0 116.5 28.5t167.5 106.5v-111q-166 -121 -280 -121q-82 0 -259 81t-247 81q-63 0 -120.5 -26.5t-168.5 -108.5z" />
<glyph unicode="&#xa1;" horiz-adv-x="362" d="M115 -453l35 1004h63l35 -1004h-133zM115 745v199h133v-199h-133z" />
<glyph unicode="&#xa2;" horiz-adv-x="854" d="M86 440q0 258 150.5 388t381.5 106l134 373h88l-138 -389q45 -12 70 -25v-109q-55 29 -102 41l-256 -727q57 -20 133 -20q125 0 246 55v-96q-184 -88 -412 -37l-139 -387h-90l151 424q-217 124 -217 403zM190 455q0 -199 146 -318l254 705h-49q-154 0 -252.5 -102.5 t-98.5 -284.5z" />
<glyph unicode="&#xa3;" horiz-adv-x="1130" d="M193 -10l172 639h-172v96h198q190 690 549 690q49 0 98 -18l49 -97q-66 16 -110 17q-176 0 -289 -153.5t-196 -438.5h217v-96h-246l-137 -520q152 14 213 14q80 0 194 -21q16 -2 43 -7t39 -7q57 -8 84 -8q53 0 102 12q57 18 101 43v-108q-41 -20 -94 -35 q-55 -10 -103 -10q-39 0 -178 22q-123 20 -213 21q-133 0 -321 -35z" />
<glyph unicode="&#xa4;" horiz-adv-x="1138" d="M96 293l129 129q-98 131 -98 278q0 152 98 277l-129 129l66 65l129 -129q127 98 276 99q152 0 279 -99l129 129l65 -65l-129 -129q98 -123 98.5 -276.5t-98.5 -278.5l129 -129l-65 -66l-129 129q-123 -98 -279 -98q-154 0 -276 98l-129 -129zM225 700.5 q0 -143.5 99.5 -244t243 -100.5t243.5 100.5t100 244t-100 242.5t-243.5 99t-243 -99t-99.5 -242.5z" />
<glyph unicode="&#xa5;" horiz-adv-x="1138" d="M4 1466h148l423 -725l418 725h142l-430 -725h366v-96h-434v-156h434v-96h-434v-393h-131v393h-438v96h438v156h-438v96h370z" />
<glyph unicode="&#xa6;" horiz-adv-x="454" d="M176 358h98v-716h-98v716zM176 666v716h98v-716h-98z" />
<glyph unicode="&#xa7;" horiz-adv-x="811" d="M53 571q0 154 172 326q-102 131 -102 248q0 121 81 195.5t210 74.5q117 0 190.5 -63.5t85.5 -161.5h-104q-29 135 -176 135q-78 0 -133.5 -51t-55.5 -123q0 -78 55.5 -154.5t134.5 -144.5l157 -137q79 -70 134.5 -159t55.5 -181q0 -84 -38 -158t-134 -174 q100 -117 100 -244q0 -121 -80 -195.5t-211 -74.5q-109 0 -184.5 59.5t-87.5 161.5h102q29 -131 174 -131q84 0 138.5 51t54.5 129q0 74 -55.5 149t-135.5 142l-158 137q-79 70 -134.5 160t-55.5 184zM158 573q0 -63 35.5 -126.5t76.5 -104.5t125 -114.5t129 -118.5 q139 131 140 258q0 113 -119 231q-25 25 -256 236q-72 -70 -101.5 -129.5t-29.5 -131.5z" />
<glyph unicode="&#xa8;" horiz-adv-x="681" d="M70 1212.5q0 36.5 26.5 63.5t63.5 27t63.5 -27t26.5 -63.5t-26.5 -63.5t-63.5 -27t-63.5 27t-26.5 63.5zM432 1212.5q0 36.5 26.5 63.5t63.5 27t63.5 -27t26.5 -63.5t-26.5 -63.5t-63.5 -27t-63.5 27t-26.5 63.5z" />
<glyph unicode="&#xa9;" horiz-adv-x="1638" d="M55 727q0 317 224.5 540.5t540 223.5t539.5 -223.5t224 -540.5t-224 -540.5t-539.5 -223.5t-540 223.5t-224.5 540.5zM152 727.5q0 -276.5 195.5 -472.5t472 -196t472 196t195.5 472.5t-195.5 472t-472 195.5t-472 -195.5t-195.5 -472zM440 729q0 176 106.5 296 t282.5 120q209 0 322 -225l-96 -25q-72 166 -228 166q-121 0 -201.5 -86t-80.5 -230q0 -164 74.5 -264t197.5 -100q182 0 252 205l90 -33q-31 -115 -121 -188.5t-215 -73.5q-166 0 -274.5 125t-108.5 313z" />
<glyph unicode="&#xaa;" horiz-adv-x="575" d="M43 983q0 88 90 141.5t254 61.5v63q0 102 -119 103q-47 0 -85 -15.5t-107 -62.5v80q106 61 203 61q94 0 144 -44t50 -114v-303q0 -41 19 -41l81 58v-74q-94 -59 -131 -59q-47 0 -55 59q-88 -59 -172 -59q-72 0 -122 42t-50 103zM131 981q0 -37 28.5 -59.5t76.5 -22.5 q72 0 151 66v161q-121 0 -188.5 -38.5t-67.5 -106.5z" />
<glyph unicode="&#xab;" d="M39 473l387 459h123l-385 -459l385 -459h-123zM475 473l387 459h123l-385 -459l385 -459h-123z" />
<glyph unicode="&#xac;" horiz-adv-x="1351" d="M139 899v90h1073v-581h-90v491h-983z" />
<glyph unicode="&#xad;" horiz-adv-x="641" d="M78 414v96h485v-96h-485z" />
<glyph unicode="&#xae;" horiz-adv-x="1638" d="M55 727q0 317 224.5 540.5t540 223.5t539.5 -223.5t224 -540.5t-224 -540.5t-539.5 -223.5t-540 223.5t-224.5 540.5zM152 727.5q0 -276.5 195.5 -472.5t472 -196t472 196t195.5 472.5t-195.5 472t-472 195.5t-472 -195.5t-195.5 -472zM512 317v803h332q127 0 199.5 -56 t72.5 -157q0 -78 -51 -140t-168 -83q86 -51 125 -105.5t125 -261.5h-121q-106 236 -168.5 294.5t-200.5 58.5h-47v-353h-98zM610 750h133q139 0 197.5 33.5t58.5 115.5q0 80 -53 110.5t-188 30.5h-148v-290z" />
<glyph unicode="&#xaf;" horiz-adv-x="681" d="M68 1171v105h546v-105h-546z" />
<glyph unicode="&#xb0;" horiz-adv-x="819" d="M125 1130.5q0 118.5 83 201.5t201.5 83t202.5 -83t84 -201.5t-84 -202.5t-202.5 -84t-201.5 84t-83 202.5zM207 1128q0 -84 59.5 -143t143.5 -59t144 59t60 143t-60 144.5t-144 60.5t-143.5 -60.5t-59.5 -144.5z" />
<glyph unicode="&#xb1;" horiz-adv-x="1351" d="M139 0v90h1073v-90h-1073zM139 674v90h492v491h90v-491h491v-90h-491v-492h-90v492h-492z" />
<glyph unicode="&#xb2;" horiz-adv-x="641" d="M61 680q182 152 286 292t104 234q0 63 -50.5 105.5t-124.5 42.5q-49 0 -87.5 -17.5t-110.5 -74.5v84q100 70 205 69q106 0 180 -60.5t74 -150.5q0 -166 -297 -461h376v-63h-555z" />
<glyph unicode="&#xb3;" horiz-adv-x="641" d="M90 709v65q94 -43 195 -43q84 0 133 40t49 108q0 152 -215 151v64q94 0 149.5 35.5t55.5 95.5q0 55 -50.5 92t-125.5 37q-86 0 -183 -60v70q78 51 185 51q113 0 185.5 -52t72.5 -134q0 -119 -133 -162v-4q143 -41 143 -182q0 -90 -74 -150.5t-184 -60.5q-109 0 -203 39z " />
<glyph unicode="&#xb4;" horiz-adv-x="681" d="M313 1067l213 319h166l-311 -319h-68z" />
<glyph unicode="&#xb5;" horiz-adv-x="1138" d="M207 -362v1282h98v-478q0 -371 270.5 -370.5t270.5 342.5v506h98v-920h-98v102q-109 -121 -273 -120q-86 0 -146 27.5t-122 92.5v-464h-98z" />
<glyph unicode="&#xb6;" horiz-adv-x="1331" d="M100 1047q0 193 130 306t350 113h692v-139h-197v-1735h-127v1735h-266v-1735h-131v1033q-201 -8 -326 112t-125 310z" />
<glyph unicode="&#xb7;" horiz-adv-x="575" d="M178 709q0 45 32 77.5t79 32.5t78.5 -32.5t31.5 -77.5t-31.5 -78t-78.5 -33t-79 33t-32 78z" />
<glyph unicode="&#xb8;" horiz-adv-x="681" d="M217 -348l10 65q98 -8 149.5 7.5t51.5 68.5q0 78 -127 80l43 143h62l-25 -88q127 -20 127 -129q0 -94 -87 -134t-204 -13z" />
<glyph unicode="&#xb9;" horiz-adv-x="641" d="M276 680v727h86v-727h-86z" />
<glyph unicode="&#xba;" horiz-adv-x="724" d="M51 1126q0 127 87 208t224 81q131 0 221.5 -84t90.5 -205q0 -131 -86 -209.5t-226 -78.5q-133 0 -222 81.5t-89 206.5zM143 1126q0 -98 61.5 -159.5t158 -61.5t158 62.5t61.5 158.5q0 94 -62.5 158t-157.5 64q-96 0 -157.5 -63t-61.5 -159z" />
<glyph unicode="&#xbb;" d="M39 14l385 459l-385 459h123l387 -459l-387 -459h-123zM475 14l385 459l-385 459h123l387 -459l-387 -459h-123z" />
<glyph unicode="&#xbc;" horiz-adv-x="1705" d="M127 -55l1077 1470h80l-1077 -1470h-80zM289 680v727h86v-727h-86zM844 274v27l420 436h41v-405h114v-58h-114v-274h-86v274h-375zM961 332h258v268z" />
<glyph unicode="&#xbd;" horiz-adv-x="1705" d="M127 -55l1077 1470h80l-1077 -1470h-80zM289 680v727h86v-727h-86zM971 0q182 152 285.5 292t103.5 234q0 63 -50 105.5t-124 42.5q-49 0 -88 -17.5t-111 -74.5v84q100 70 205 69q106 0 180 -60.5t74 -150.5q0 -166 -297 -461h377v-63h-555z" />
<glyph unicode="&#xbe;" horiz-adv-x="1705" d="M137 709v65q94 -43 195 -43q84 0 133 40t49 108q0 152 -215 151v64q94 0 149.5 35.5t55.5 95.5q0 55 -50.5 92t-125.5 37q-86 0 -183 -60v70q76 51 185 51q113 0 185.5 -52t72.5 -134q0 -119 -133 -162v-4q143 -41 143 -182q0 -90 -73.5 -150.5t-184.5 -60.5 q-109 0 -203 39zM233 -55l1078 1470h80l-1078 -1470h-80zM950 274v27l420 436h41v-405h115v-58h-115v-274h-86v274h-375zM1067 332h258v268z" />
<glyph unicode="&#xbf;" horiz-adv-x="575" d="M45 -180q0 98 41 192t91 155.5t91 137.5t41 144q0 61 -39 129l37 28q80 -92 80 -188q0 -68 -37 -148t-82 -142t-81.5 -149.5t-36.5 -168.5q0 -80 45 -136.5t108 -56.5q98 0 164 109h20l-47 -160q-74 -37 -139 -37q-115 0 -185.5 80t-70.5 211zM231 745v199h134v-199h-134 z" />
<glyph unicode="&#xc0;" horiz-adv-x="1366" d="M8 0l645 1407h60l645 -1407h-113l-221 483h-682l-221 -483h-113zM383 573h600l-301 658zM500 1833h166l213 -320h-68z" />
<glyph unicode="&#xc1;" horiz-adv-x="1366" d="M8 0l645 1407h60l645 -1407h-113l-221 483h-682l-221 -483h-113zM383 573h600l-301 658zM655 1513l213 320h166l-311 -320h-68z" />
<glyph unicode="&#xc2;" horiz-adv-x="1366" d="M8 0l645 1407h60l645 -1407h-113l-221 483h-682l-221 -483h-113zM383 573h600l-301 658zM401 1495l222 336h125l217 -336h-78l-203 223l-205 -223h-78z" />
<glyph unicode="&#xc3;" horiz-adv-x="1366" d="M8 0l645 1407h60l645 -1407h-113l-221 483h-682l-221 -483h-113zM348 1569q0 82 42 138t126 56q66 0 180 -49q123 -51 168 -51q41 0 62.5 23.5t29.5 76.5h62q6 -86 -47 -143q-47 -53 -121 -53q-49 0 -182 51q-123 49 -168 49q-74 0 -86 -98h-66zM383 573h600l-301 658z " />
<glyph unicode="&#xc4;" horiz-adv-x="1366" d="M8 0l645 1407h60l645 -1407h-113l-221 483h-682l-221 -483h-113zM383 573h600l-301 658zM412 1659q0 37 26.5 63.5t63.5 26.5t63.5 -26.5t26.5 -63.5t-26.5 -63.5t-63.5 -26.5t-63.5 26.5t-26.5 63.5zM774 1659q0 37 26.5 63.5t63.5 26.5t63.5 -26.5t26.5 -63.5 t-26.5 -63.5t-63.5 -26.5t-63.5 26.5t-26.5 63.5z" />
<glyph unicode="&#xc5;" horiz-adv-x="1366" d="M8 0l645 1407h60l645 -1407h-113l-221 483h-682l-221 -483h-113zM383 573h600l-301 658zM506 1661q0 74 52 125t126 51t125 -51t51 -125t-51 -126t-125 -52t-126 52t-52 126zM561 1661q0 -51 36 -87t87 -36t86 36t35 87t-35 86t-86 35t-87 -35t-36 -86z" />
<glyph unicode="&#xc6;" horiz-adv-x="1771" d="M-29 0l873 1397h831v-90h-657v-557h643v-91h-643v-569h676v-90h-785v659h-409l-410 -659h-119zM559 750h350v571h-4z" />
<glyph unicode="&#xc7;" horiz-adv-x="1386" d="M100 696q0 311 218.5 515t515.5 204q236 0 491 -117v-118q-256 135 -498 135q-262 0 -436 -176t-174 -443q0 -270 175 -442t450 -172q225 0 497 143v-112q-246 -131 -495 -131q-33 0 -47 4l-17 -58q127 -20 127 -129q0 -94 -87 -134t-204 -13l11 65q98 -8 149 7.5 t51 68.5q0 78 -127 80l35 117q-279 35 -457 231t-178 475z" />
<glyph unicode="&#xc8;" horiz-adv-x="1003" d="M164 0v1397h762v-90h-654v-559h637v-91h-637v-567h670v-90h-778zM319 1833h166l213 -320h-67z" />
<glyph unicode="&#xc9;" horiz-adv-x="1003" d="M164 0v1397h762v-90h-654v-559h637v-91h-637v-567h670v-90h-778zM475 1513l213 320h166l-311 -320h-68z" />
<glyph unicode="&#xca;" horiz-adv-x="1003" d="M164 0v1397h762v-90h-654v-559h637v-91h-637v-567h670v-90h-778zM221 1495l221 336h125l217 -336h-77l-203 223l-205 -223h-78z" />
<glyph unicode="&#xcb;" horiz-adv-x="1003" d="M164 0v1397h762v-90h-654v-559h637v-91h-637v-567h670v-90h-778zM231 1659q0 37 27 63.5t63.5 26.5t63.5 -26.5t27 -63.5t-27 -63.5t-63.5 -26.5t-63.5 26.5t-27 63.5zM594 1659q0 37 26.5 63.5t63.5 26.5t63.5 -26.5t26.5 -63.5t-26.5 -63.5t-63.5 -26.5t-63.5 26.5 t-26.5 63.5z" />
<glyph unicode="&#xcc;" horiz-adv-x="425" d="M-53 1833h166l213 -320h-68zM160 0v1397h108v-1397h-108z" />
<glyph unicode="&#xcd;" horiz-adv-x="425" d="M160 0v1397h108v-1397h-108zM186 1513l213 320h166l-311 -320h-68z" />
<glyph unicode="&#xce;" horiz-adv-x="425" d="M-68 1495l222 336h125l217 -336h-78l-203 223l-205 -223h-78zM160 0v1397h108v-1397h-108z" />
<glyph unicode="&#xcf;" horiz-adv-x="425" d="M-57 1659q0 37 26.5 63.5t63.5 26.5t63.5 -26.5t26.5 -63.5t-26.5 -63.5t-63.5 -26.5t-63.5 26.5t-26.5 63.5zM160 0v1397h108v-1397h-108zM305 1659q0 37 26.5 63.5t63.5 26.5t63.5 -26.5t26.5 -63.5t-26.5 -63.5t-63.5 -26.5t-63.5 26.5t-26.5 63.5z" />
<glyph unicode="&#xd0;" horiz-adv-x="1515" d="M-47 655v90h209v652h489q172 0 307.5 -44t218.5 -113t138 -163t76.5 -187t21.5 -192q0 -129 -40 -246.5t-123 -222t-232.5 -167t-347.5 -62.5h-508v655h-209zM270 90h394q266 0 449 163t183 445q0 268 -177 438.5t-462 170.5h-387v-562h453v-90h-453v-565z" />
<glyph unicode="&#xd1;" horiz-adv-x="1579" d="M160 0v1397h92l1059 -1221v1221h108v-1397h-90l-1061 1221v-1221h-108zM455 1569q0 82 42 138t126 56q66 0 180 -49q123 -51 168 -51q41 0 62.5 23.5t29.5 76.5h61q6 -86 -47 -143q-47 -53 -121 -53q-49 0 -182 51q-123 49 -168 49q-74 0 -86 -98h-65z" />
<glyph unicode="&#xd2;" horiz-adv-x="1685" d="M104 698q0 301 214 509t524 208q311 0 526 -208t215 -509t-215 -508.5t-526 -207.5q-309 0 -523.5 207.5t-214.5 508.5zM221 698q0 -260 181.5 -438t443.5 -178t441 178t179 438t-179 438.5t-441 178.5t-443.5 -178.5t-181.5 -438.5zM659 1833h166l213 -320h-67z" />
<glyph unicode="&#xd3;" horiz-adv-x="1685" d="M104 698q0 301 214 509t524 208q311 0 526 -208t215 -509t-215 -508.5t-526 -207.5q-309 0 -523.5 207.5t-214.5 508.5zM221 698q0 -260 181.5 -438t443.5 -178t441 178t179 438t-179 438.5t-441 178.5t-443.5 -178.5t-181.5 -438.5zM815 1513l213 320h166l-311 -320h-68 z" />
<glyph unicode="&#xd4;" horiz-adv-x="1685" d="M104 698q0 301 214 509t524 208q311 0 526 -208t215 -509t-215 -508.5t-526 -207.5q-309 0 -523.5 207.5t-214.5 508.5zM221 698q0 -260 181.5 -438t443.5 -178t441 178t179 438t-179 438.5t-441 178.5t-443.5 -178.5t-181.5 -438.5zM561 1495l221 336h125l217 -336h-77 l-203 223l-205 -223h-78z" />
<glyph unicode="&#xd5;" horiz-adv-x="1685" d="M104 698q0 301 214 509t524 208q311 0 526 -208t215 -509t-215 -508.5t-526 -207.5q-309 0 -523.5 207.5t-214.5 508.5zM221 698q0 -260 181.5 -438t443.5 -178t441 178t179 438t-179 438.5t-441 178.5t-443.5 -178.5t-181.5 -438.5zM508 1569q0 82 42 138t126 56 q66 0 180 -49q123 -51 168 -51q41 0 62.5 23.5t29.5 76.5h62q6 -86 -48 -143q-47 -53 -120 -53q-49 0 -183 51q-123 49 -168 49q-74 0 -86 -98h-65z" />
<glyph unicode="&#xd6;" horiz-adv-x="1685" d="M104 698q0 301 214 509t524 208q311 0 526 -208t215 -509t-215 -508.5t-526 -207.5q-309 0 -523.5 207.5t-214.5 508.5zM221 698q0 -260 181.5 -438t443.5 -178t441 178t179 438t-179 438.5t-441 178.5t-443.5 -178.5t-181.5 -438.5zM571 1659q0 37 27 63.5t63.5 26.5 t63.5 -26.5t27 -63.5t-27 -63.5t-63.5 -26.5t-63.5 26.5t-27 63.5zM934 1659q0 37 26.5 63.5t63.5 26.5t63.5 -26.5t26.5 -63.5t-26.5 -63.5t-63.5 -26.5t-63.5 26.5t-26.5 63.5z" />
<glyph unicode="&#xd7;" horiz-adv-x="1351" d="M264 375l346 346l-346 346l66 66l346 -347l346 347l65 -66l-346 -346l346 -346l-65 -66l-346 346l-346 -346z" />
<glyph unicode="&#xd8;" horiz-adv-x="1685" d="M104 698q0 301 214 509t524 208q256 0 461 -151l129 143l75 -51l-137 -152q213 -207 213 -506q0 -301 -215 -508.5t-526 -207.5q-236 0 -443 139l-129 -144l-77 60l131 145q-220 215 -220 516zM221 698q0 -256 178 -434l832 922q-156 129 -385 129q-262 0 -443.5 -178.5 t-181.5 -438.5zM471 201q162 -119 375 -119q262 0 441 178t179 438q0 233 -166 426z" />
<glyph unicode="&#xd9;" horiz-adv-x="1429" d="M131 610v787h109v-783q0 -260 136 -396t339 -136q199 0 338 135t139 412v768h108v-762q0 -172 -50 -303t-136 -205t-186.5 -109.5t-212.5 -35.5q-250 0 -417 163.5t-167 464.5zM532 1833h166l213 -320h-67z" />
<glyph unicode="&#xda;" horiz-adv-x="1429" d="M131 610v787h109v-783q0 -260 136 -396t339 -136q199 0 338 135t139 412v768h108v-762q0 -172 -50 -303t-136 -205t-186.5 -109.5t-212.5 -35.5q-250 0 -417 163.5t-167 464.5zM688 1513l213 320h166l-311 -320h-68z" />
<glyph unicode="&#xdb;" horiz-adv-x="1429" d="M131 610v787h109v-783q0 -260 136 -396t339 -136q199 0 338 135t139 412v768h108v-762q0 -172 -50 -303t-136 -205t-186.5 -109.5t-212.5 -35.5q-250 0 -417 163.5t-167 464.5zM434 1495l221 336h125l217 -336h-77l-203 223l-205 -223h-78z" />
<glyph unicode="&#xdc;" horiz-adv-x="1429" d="M131 610v787h109v-783q0 -260 136 -396t339 -136q199 0 338 135t139 412v768h108v-762q0 -172 -50 -303t-136 -205t-186.5 -109.5t-212.5 -35.5q-250 0 -417 163.5t-167 464.5zM444 1659q0 37 27 63.5t63.5 26.5t63.5 -26.5t27 -63.5t-27 -63.5t-63.5 -26.5t-63.5 26.5 t-27 63.5zM807 1659q0 37 26.5 63.5t63.5 26.5t63.5 -26.5t26.5 -63.5t-26.5 -63.5t-63.5 -26.5t-63.5 26.5t-26.5 63.5z" />
<glyph unicode="&#xdd;" horiz-adv-x="1193" d="M0 1397h131l467 -553l465 553h131l-543 -647v-750h-108v750zM569 1513l213 320h166l-311 -320h-68z" />
<glyph unicode="&#xde;" horiz-adv-x="1044" d="M160 0v1397h108v-326h277q231 0 343.5 -102.5t112.5 -266.5q0 -72 -22.5 -135t-73.5 -118.5t-146 -88t-224 -32.5h-267v-328h-108zM268 418h260q184 0 270.5 77.5t86.5 204.5q0 123 -85 202t-259 79h-273v-563z" />
<glyph unicode="&#xdf;" d="M127 0v997q0 199 99.5 308.5t279.5 109.5q162 0 267.5 -95t105.5 -243q0 -84 -45.5 -174t-139.5 -127q246 -96 246 -370q0 -186 -103.5 -305t-263.5 -119q-59 0 -127 18v102q70 -25 123 -24q121 0 194 89t73 236q0 145 -73 230.5t-204 95.5v92q100 -8 157.5 69t57.5 181 q0 121 -72.5 191.5t-195.5 70.5q-156 0 -218.5 -94t-62.5 -260v-979h-98z" />
<glyph unicode="&#xe0;" horiz-adv-x="874" d="M74 215q0 113 81 189.5t195.5 108.5t259.5 38v117q0 188 -204 188q-72 0 -134.5 -26.5t-146.5 -90.5v101q160 98 297 98q68 0 127 -18.5t109.5 -75t50.5 -146.5v-573q0 -47 22 -47q27 0 131 82v-82l-16 -12q-111 -84 -170 -84q-33 0 -46.5 22.5t-19.5 91.5 q-147 -115 -288 -114q-104 0 -176 68.5t-72 164.5zM172 215q0 -66 52 -109t130 -43q123 0 256 119v287q-182 8 -310 -63.5t-128 -190.5zM254 1386h166l213 -319h-68z" />
<glyph unicode="&#xe1;" horiz-adv-x="874" d="M74 215q0 113 81 189.5t195.5 108.5t259.5 38v117q0 188 -204 188q-72 0 -134.5 -26.5t-146.5 -90.5v101q160 98 297 98q68 0 127 -18.5t109.5 -75t50.5 -146.5v-573q0 -47 22 -47q27 0 131 82v-82l-16 -12q-111 -84 -170 -84q-33 0 -46.5 22.5t-19.5 91.5 q-147 -115 -288 -114q-104 0 -176 68.5t-72 164.5zM172 215q0 -66 52 -109t130 -43q123 0 256 119v287q-182 8 -310 -63.5t-128 -190.5zM410 1067l213 319h165l-311 -319h-67z" />
<glyph unicode="&#xe2;" horiz-adv-x="874" d="M74 215q0 113 81 189.5t195.5 108.5t259.5 38v117q0 188 -204 188q-72 0 -134.5 -26.5t-146.5 -90.5v101q160 98 297 98q68 0 127 -18.5t109.5 -75t50.5 -146.5v-573q0 -47 22 -47q27 0 131 82v-82l-16 -12q-111 -84 -170 -84q-33 0 -46.5 22.5t-19.5 91.5 q-147 -115 -288 -114q-104 0 -176 68.5t-72 164.5zM156 1049l221 335h125l217 -335h-78l-203 223l-205 -223h-77zM172 215q0 -66 52 -109t130 -43q123 0 256 119v287q-182 8 -310 -63.5t-128 -190.5z" />
<glyph unicode="&#xe3;" horiz-adv-x="874" d="M74 215q0 113 81 189.5t195.5 108.5t259.5 38v117q0 188 -204 188q-72 0 -134.5 -26.5t-146.5 -90.5v101q160 98 297 98q68 0 127 -18.5t109.5 -75t50.5 -146.5v-573q0 -47 22 -47q27 0 131 82v-82l-16 -12q-111 -84 -170 -84q-33 0 -46.5 22.5t-19.5 91.5 q-147 -115 -288 -114q-104 0 -176 68.5t-72 164.5zM102 1122q0 82 42 138.5t126 56.5q66 0 181 -49q123 -51 167 -51q41 0 62.5 23.5t30.5 76.5h61q6 -86 -47 -143q-47 -53 -121 -54q-49 0 -182 51q-123 49 -168 50q-74 0 -86 -99h-66zM172 215q0 -66 52 -109t130 -43 q123 0 256 119v287q-182 8 -310 -63.5t-128 -190.5z" />
<glyph unicode="&#xe4;" horiz-adv-x="874" d="M74 215q0 113 81 189.5t195.5 108.5t259.5 38v117q0 188 -204 188q-72 0 -134.5 -26.5t-146.5 -90.5v101q160 98 297 98q68 0 127 -18.5t109.5 -75t50.5 -146.5v-573q0 -47 22 -47q27 0 131 82v-82l-16 -12q-111 -84 -170 -84q-33 0 -46.5 22.5t-19.5 91.5 q-147 -115 -288 -114q-104 0 -176 68.5t-72 164.5zM166 1212.5q0 36.5 26.5 63.5t63.5 27t63.5 -27t26.5 -63.5t-26.5 -63.5t-63.5 -27t-63.5 27t-26.5 63.5zM172 215q0 -66 52 -109t130 -43q123 0 256 119v287q-182 8 -310 -63.5t-128 -190.5zM528 1212.5q0 36.5 27 63.5 t63.5 27t63.5 -27t27 -63.5t-27 -63.5t-63.5 -27t-63.5 27t-27 63.5z" />
<glyph unicode="&#xe5;" horiz-adv-x="874" d="M74 215q0 113 81 189.5t195.5 108.5t259.5 38v117q0 188 -204 188q-72 0 -134.5 -26.5t-146.5 -90.5v101q160 98 297 98q68 0 127 -18.5t109.5 -75t50.5 -146.5v-573q0 -47 22 -47q27 0 131 82v-82l-16 -12q-111 -84 -170 -84q-33 0 -46.5 22.5t-19.5 91.5 q-147 -115 -288 -114q-104 0 -176 68.5t-72 164.5zM172 215q0 -66 52 -109t130 -43q123 0 256 119v287q-182 8 -310 -63.5t-128 -190.5zM260 1214.5q0 73.5 52.5 125t126 51.5t124.5 -51.5t51 -125t-51 -126t-124.5 -52.5t-126 52.5t-52.5 126zM315 1214.5q0 -51.5 36 -87 t87 -35.5t86 35.5t35 87t-35 86t-86 34.5t-87 -34.5t-36 -86z" />
<glyph unicode="&#xe6;" horiz-adv-x="1366" d="M68 219q0 59 24.5 107.5t65.5 82t113.5 65.5t144 53.5t184.5 50.5v67q0 203 -184 203q-143 0 -305 -115v103q150 102 319 102q90 0 147.5 -33t102.5 -108q59 78 117.5 109.5t138.5 31.5q162 0 258 -124t96 -316h-592v-121q0 -152 78 -225.5t187 -73.5q162 0 327 121v-113 q-168 -104 -338 -104t-293 143q-199 -143 -346 -143q-106 0 -175.5 67.5t-69.5 169.5zM162 215q0 -66 49 -109t123 -43q109 0 266 119v316q-211 -51 -324.5 -118t-113.5 -165zM698 578h484q-4 121 -77 192.5t-171 71.5q-100 0 -167 -73.5t-69 -190.5z" />
<glyph unicode="&#xe7;" horiz-adv-x="854" d="M86 446q0 217 125 354.5t321 137.5q102 0 244 -45v-109q-135 57 -239 58q-154 0 -250.5 -106.5t-96.5 -278.5q0 -174 96.5 -276.5t258.5 -102.5q115 0 248 53v-102q-141 -47 -256 -47q-25 0 -37 4l-17 -58q127 -20 127 -129q0 -94 -87 -134t-204 -13l11 65q98 -8 149 7.5 t51 68.5q0 78 -127 80l35 117q-162 29 -257 151.5t-95 304.5z" />
<glyph unicode="&#xe8;" horiz-adv-x="980" d="M82 471q0 203 120 335t302 132q164 0 285.5 -114.5t121.5 -329.5h-725q-20 -172 92.5 -294t274.5 -122q172 0 342 137v-111q-160 -123 -354 -122q-201 0 -330 138t-129 351zM199 573h596q-51 268 -291 269q-115 0 -196.5 -72t-108.5 -197zM307 1386h166l213 -319h-68z " />
<glyph unicode="&#xe9;" horiz-adv-x="980" d="M82 471q0 203 120 335t302 132q164 0 285.5 -114.5t121.5 -329.5h-725q-20 -172 92.5 -294t274.5 -122q172 0 342 137v-111q-160 -123 -354 -122q-201 0 -330 138t-129 351zM199 573h596q-51 268 -291 269q-115 0 -196.5 -72t-108.5 -197zM463 1067l213 319h166 l-312 -319h-67z" />
<glyph unicode="&#xea;" horiz-adv-x="980" d="M82 471q0 203 120 335t302 132q164 0 285.5 -114.5t121.5 -329.5h-725q-20 -172 92.5 -294t274.5 -122q172 0 342 137v-111q-160 -123 -354 -122q-201 0 -330 138t-129 351zM199 573h596q-51 268 -291 269q-115 0 -196.5 -72t-108.5 -197zM209 1049l221 335h125l217 -335 h-78l-202 223l-205 -223h-78z" />
<glyph unicode="&#xeb;" horiz-adv-x="980" d="M82 471q0 203 120 335t302 132q164 0 285.5 -114.5t121.5 -329.5h-725q-20 -172 92.5 -294t274.5 -122q172 0 342 137v-111q-160 -123 -354 -122q-201 0 -330 138t-129 351zM199 573h596q-51 268 -291 269q-115 0 -196.5 -72t-108.5 -197zM219 1212.5q0 36.5 26.5 63.5 t63.5 27t63.5 -27t26.5 -63.5t-26.5 -63.5t-63.5 -27t-63.5 27t-26.5 63.5zM582 1212.5q0 36.5 26.5 63.5t63.5 27t63.5 -27t26.5 -63.5t-26.5 -63.5t-63.5 -27t-63.5 27t-26.5 63.5z" />
<glyph unicode="&#xec;" horiz-adv-x="385" d="M-74 1386h166l213 -319h-67zM143 0v920h99v-920h-99z" />
<glyph unicode="&#xed;" horiz-adv-x="385" d="M143 0v920h99v-920h-99zM166 1067l213 319h166l-312 -319h-67z" />
<glyph unicode="&#xee;" horiz-adv-x="385" d="M-88 1049l221 335h125l217 -335h-78l-202 223l-205 -223h-78zM143 0v920h99v-920h-99z" />
<glyph unicode="&#xef;" horiz-adv-x="385" d="M-78 1212.5q0 36.5 26.5 63.5t63.5 27t63.5 -27t26.5 -63.5t-26.5 -63.5t-63.5 -27t-63.5 27t-26.5 63.5zM143 0v920h99v-920h-99zM285 1212.5q0 36.5 26.5 63.5t63.5 27t63.5 -27t26.5 -63.5t-26.5 -63.5t-63.5 -27t-63.5 27t-26.5 63.5z" />
<glyph unicode="&#xf0;" horiz-adv-x="1144" d="M78 453q0 207 142 346t355 139q117 0 203 -39t164 -129l4 4q-74 236 -289 404l-292 -138l-31 68l256 119q-76 53 -184 96l38 74q133 -49 242 -125l272 125l31 -68l-237 -108q322 -270 321 -709q0 -242 -138 -386t-370 -144q-207 0 -347 135t-140 336zM172 453 q0 -168 114.5 -279t291.5 -111q178 0 284.5 111t106.5 291q0 174 -109.5 282.5t-286.5 108.5q-170 0 -285.5 -116.5t-115.5 -286.5z" />
<glyph unicode="&#xf1;" horiz-adv-x="1003" d="M127 0v920h98v-160h4q63 96 133 137t170 41q154 0 248 -98.5t94 -278.5v-561h-98v524q0 156 -64.5 237t-185.5 81q-98 0 -167.5 -47t-133.5 -150v-645h-98zM168 1122q0 82 42 138.5t126 56.5q66 0 180 -49q123 -51 168 -51q41 0 62.5 23.5t29.5 76.5h62q6 -86 -47 -143 q-47 -53 -121 -54q-49 0 -183 51q-123 49 -168 50q-74 0 -86 -99h-65z" />
<glyph unicode="&#xf2;" horiz-adv-x="1110" d="M86 459q0 205 134 342t335 137t334 -136t133 -343q0 -205 -133 -341t-334 -136t-335 136t-134 341zM190 459q0 -164 103.5 -272.5t261.5 -108.5q156 0 259.5 108.5t103.5 272.5t-103.5 273.5t-259.5 109.5q-158 0 -261.5 -108.5t-103.5 -274.5zM373 1386h166l213 -319 h-68z" />
<glyph unicode="&#xf3;" horiz-adv-x="1110" d="M86 459q0 205 134 342t335 137t334 -136t133 -343q0 -205 -133 -341t-334 -136t-335 136t-134 341zM190 459q0 -164 103.5 -272.5t261.5 -108.5q156 0 259.5 108.5t103.5 272.5t-103.5 273.5t-259.5 109.5q-158 0 -261.5 -108.5t-103.5 -274.5zM528 1067l213 319h166 l-311 -319h-68z" />
<glyph unicode="&#xf4;" horiz-adv-x="1110" d="M86 459q0 205 134 342t335 137t334 -136t133 -343q0 -205 -133 -341t-334 -136t-335 136t-134 341zM190 459q0 -164 103.5 -272.5t261.5 -108.5q156 0 259.5 108.5t103.5 272.5t-103.5 273.5t-259.5 109.5q-158 0 -261.5 -108.5t-103.5 -274.5zM274 1049l222 335h125 l217 -335h-78l-203 223l-205 -223h-78z" />
<glyph unicode="&#xf5;" horiz-adv-x="1110" d="M86 459q0 205 134 342t335 137t334 -136t133 -343q0 -205 -133 -341t-334 -136t-335 136t-134 341zM190 459q0 -164 103.5 -272.5t261.5 -108.5q156 0 259.5 108.5t103.5 272.5t-103.5 273.5t-259.5 109.5q-158 0 -261.5 -108.5t-103.5 -274.5zM221 1122q0 82 42 138.5 t126 56.5q66 0 180 -49q123 -51 168 -51q41 0 62.5 23.5t29.5 76.5h62q6 -86 -47 -143q-47 -53 -121 -54q-49 0 -182 51q-123 49 -168 50q-74 0 -86 -99h-66z" />
<glyph unicode="&#xf6;" horiz-adv-x="1110" d="M86 459q0 205 134 342t335 137t334 -136t133 -343q0 -205 -133 -341t-334 -136t-335 136t-134 341zM190 459q0 -164 103.5 -272.5t261.5 -108.5q156 0 259.5 108.5t103.5 272.5t-103.5 273.5t-259.5 109.5q-158 0 -261.5 -108.5t-103.5 -274.5zM285 1212.5 q0 36.5 26.5 63.5t63.5 27t63.5 -27t26.5 -63.5t-26.5 -63.5t-63.5 -27t-63.5 27t-26.5 63.5zM647 1212.5q0 36.5 26.5 63.5t63.5 27t63.5 -27t26.5 -63.5t-26.5 -63.5t-63.5 -27t-63.5 27t-26.5 63.5z" />
<glyph unicode="&#xf7;" horiz-adv-x="1351" d="M139 674v90h1073v-90h-1073zM596 379q0 35 23.5 57.5t56.5 22.5t56.5 -22.5t23.5 -57.5t-23.5 -57.5t-56.5 -22.5t-56.5 22.5t-23.5 57.5zM596 1059q0 35 23.5 57.5t56.5 22.5t56.5 -22.5t23.5 -57.5t-23.5 -57.5t-56.5 -22.5t-56.5 22.5t-23.5 57.5z" />
<glyph unicode="&#xf8;" horiz-adv-x="1110" d="M86 0l119 135q-119 129 -119 324q0 205 134 342t335 137q162 0 281 -90l108 123l64 -51l-111 -127q125 -141 125 -334q0 -205 -133 -341t-334 -136q-160 0 -285 92l-116 -135zM190 459q0 -139 82 -248l496 561q-90 70 -213 70q-158 0 -261.5 -108.5t-103.5 -274.5z M338 150q55 -37 100 -54.5t117 -17.5q156 0 259.5 108.5t103.5 272.5q0 160 -91 254z" />
<glyph unicode="&#xf9;" horiz-adv-x="1003" d="M127 350v570h98v-568q0 -133 72 -203.5t180 -70.5q102 0 168 47t131 149v646h98v-920h-98v152h-4q-66 -92 -132.5 -131t-170.5 -39q-137 0 -239.5 90t-102.5 278zM319 1386h166l213 -319h-67z" />
<glyph unicode="&#xfa;" horiz-adv-x="1003" d="M127 350v570h98v-568q0 -133 72 -203.5t180 -70.5q102 0 168 47t131 149v646h98v-920h-98v152h-4q-66 -92 -132.5 -131t-170.5 -39q-137 0 -239.5 90t-102.5 278zM475 1067l213 319h166l-311 -319h-68z" />
<glyph unicode="&#xfb;" horiz-adv-x="1003" d="M127 350v570h98v-568q0 -133 72 -203.5t180 -70.5q102 0 168 47t131 149v646h98v-920h-98v152h-4q-66 -92 -132.5 -131t-170.5 -39q-137 0 -239.5 90t-102.5 278zM221 1049l221 335h125l217 -335h-77l-203 223l-205 -223h-78z" />
<glyph unicode="&#xfc;" horiz-adv-x="1003" d="M127 350v570h98v-568q0 -133 72 -203.5t180 -70.5q102 0 168 47t131 149v646h98v-920h-98v152h-4q-66 -92 -132.5 -131t-170.5 -39q-137 0 -239.5 90t-102.5 278zM231 1212.5q0 36.5 27 63.5t63.5 27t63.5 -27t27 -63.5t-27 -63.5t-63.5 -27t-63.5 27t-27 63.5z M594 1212.5q0 36.5 26.5 63.5t63.5 27t63.5 -27t26.5 -63.5t-26.5 -63.5t-63.5 -27t-63.5 27t-26.5 63.5z" />
<glyph unicode="&#xfd;" horiz-adv-x="854" d="M12 920h103l334 -644l317 644h100l-688 -1391h-100l321 649zM399 1067l213 319h166l-311 -319h-68z" />
<glyph unicode="&#xfe;" horiz-adv-x="1044" d="M129 -471v1868h98v-529q141 70 277 70q197 0 325.5 -135t128.5 -340q0 -203 -133 -342t-325 -139q-131 0 -273 69v-522h-98zM227 147q129 -70 254 -69q166 0 267.5 103.5t101.5 273.5q0 168 -107.5 277.5t-273.5 109.5q-115 0 -242 -68v-627z" />
<glyph unicode="&#xff;" horiz-adv-x="854" d="M12 920h103l334 -644l317 644h100l-688 -1391h-100l321 649zM156 1212.5q0 36.5 26.5 63.5t63.5 27t63.5 -27t26.5 -63.5t-26.5 -63.5t-63.5 -27t-63.5 27t-26.5 63.5zM518 1212.5q0 36.5 26.5 63.5t63.5 27t63.5 -27t26.5 -63.5t-26.5 -63.5t-63.5 -27t-63.5 27 t-26.5 63.5z" />
<glyph unicode="&#x152;" horiz-adv-x="1835" d="M84 696q0 131 47 254t136 223.5t235.5 162t328.5 61.5h912v-90h-660v-562h646v-90h-646v-565h674v-90h-921q-188 0 -338 63.5t-237 166t-132 222t-45 244.5zM201 696q0 -113 40 -218t117.5 -193t206.5 -141.5t293 -53.5h117v1217h-121q-135 0 -246.5 -37t-186.5 -98.5 t-125 -141.5t-72.5 -164t-22.5 -170z" />
<glyph unicode="&#x153;" horiz-adv-x="1705" d="M84 459q0 211 129 345t334 134q236 0 383 -195q45 90 133 142.5t182 52.5q166 0 276.5 -123t102.5 -319h-639q-8 -211 72 -314.5t219 -103.5q172 0 328 137v-113q-152 -121 -340 -120q-236 0 -334 215q-86 -113 -180.5 -164t-212.5 -51q-195 0 -324 129t-129 348z M188 463q0 -168 100.5 -276.5t254 -108.5t246 110.5t92.5 288.5q0 170 -88 267.5t-244 97.5q-162 0 -261.5 -104.5t-99.5 -274.5zM989 573h520q-8 127 -80.5 198t-181.5 71q-104 0 -180 -74t-78 -195z" />
<glyph unicode="&#x178;" horiz-adv-x="1193" d="M0 1397h131l467 -553l465 553h131l-543 -647v-750h-108v750zM326 1659q0 37 26.5 63.5t63.5 26.5t63.5 -26.5t26.5 -63.5t-26.5 -63.5t-63.5 -26.5t-63.5 26.5t-26.5 63.5zM688 1659q0 37 26.5 63.5t63.5 26.5t63.5 -26.5t26.5 -63.5t-26.5 -63.5t-63.5 -26.5t-63.5 26.5 t-26.5 63.5z" />
<glyph unicode="&#x2c6;" horiz-adv-x="681" d="M59 1049l222 335h125l217 -335h-78l-203 223l-205 -223h-78z" />
<glyph unicode="&#x2dc;" horiz-adv-x="681" d="M6 1122q0 82 42 138.5t126 56.5q66 0 180 -49q123 -51 168 -51q41 0 62.5 23.5t29.5 76.5h62q6 -86 -47 -143q-47 -53 -121 -54q-49 0 -182 51q-123 49 -168 50q-74 0 -86 -99h-66z" />
<glyph unicode="&#x2000;" horiz-adv-x="917" />
<glyph unicode="&#x2001;" horiz-adv-x="1837" />
<glyph unicode="&#x2002;" horiz-adv-x="917" />
<glyph unicode="&#x2003;" horiz-adv-x="1837" />
<glyph unicode="&#x2004;" horiz-adv-x="612" />
<glyph unicode="&#x2005;" horiz-adv-x="458" />
<glyph unicode="&#x2006;" horiz-adv-x="305" />
<glyph unicode="&#x2007;" horiz-adv-x="305" />
<glyph unicode="&#x2008;" horiz-adv-x="229" />
<glyph unicode="&#x2009;" horiz-adv-x="366" />
<glyph unicode="&#x200a;" horiz-adv-x="100" />
<glyph unicode="&#x2010;" horiz-adv-x="641" d="M78 414v96h485v-96h-485z" />
<glyph unicode="&#x2011;" horiz-adv-x="641" d="M78 414v96h485v-96h-485z" />
<glyph unicode="&#x2012;" horiz-adv-x="641" d="M78 414v96h485v-96h-485z" />
<glyph unicode="&#x2013;" d="M-12 479v66h1048v-66h-1048z" />
<glyph unicode="&#x2014;" horiz-adv-x="2048" d="M-12 479v66h2072v-66h-2072z" />
<glyph unicode="&#x2018;" horiz-adv-x="362" d="M115 963v155q0 82 33.5 159t99.5 124v-72q-43 -63 -43 -168h43v-198h-133z" />
<glyph unicode="&#x2019;" horiz-adv-x="362" d="M115 963v71q43 63 43 168h-43v199h133v-156q0 -82 -33.5 -158.5t-99.5 -123.5z" />
<glyph unicode="&#x201a;" horiz-adv-x="362" d="M115 0v199h133v-156q0 -82 -34 -159t-99 -124v72q43 66 43 168h-43z" />
<glyph unicode="&#x201c;" horiz-adv-x="811" d="M115 963v155q0 82 33.5 159t99.5 124v-72q-43 -63 -43 -168h43v-198h-133zM563 963v155q0 82 34 159t99 124v-72q-43 -63 -43 -168h43v-198h-133z" />
<glyph unicode="&#x201d;" horiz-adv-x="811" d="M115 963v71q43 63 43 168h-43v199h133v-156q0 -82 -33.5 -158.5t-99.5 -123.5zM563 963v71q43 63 43 168h-43v199h133v-156q0 -82 -33.5 -158.5t-99.5 -123.5z" />
<glyph unicode="&#x201e;" horiz-adv-x="811" d="M119 0v199h133v-156q0 -82 -34 -159t-99 -124v72q43 66 43 168h-43zM559 0v199h133v-156q0 -82 -33.5 -159t-99.5 -124v72q43 66 43 168h-43z" />
<glyph unicode="&#x2022;" d="M262 698.5q0 102.5 74 176t176 73.5t176 -73.5t74 -176t-74 -176t-176 -73.5t-176 73.5t-74 176z" />
<glyph unicode="&#x2026;" horiz-adv-x="2048" d="M274 0v199h134v-199h-134zM956 0v199h134v-199h-134zM1638 0v199h134v-199h-134z" />
<glyph unicode="&#x202f;" horiz-adv-x="366" />
<glyph unicode="&#x2039;" horiz-adv-x="575" d="M33 473l387 459h123l-385 -459l385 -459h-123z" />
<glyph unicode="&#x203a;" horiz-adv-x="575" d="M33 14l385 459l-385 459h123l387 -459l-387 -459h-123z" />
<glyph unicode="&#x205f;" horiz-adv-x="458" />
<glyph unicode="&#x20ac;" horiz-adv-x="1144" d="M33 532l18 99h125q-2 20 -2 74q0 41 2 57h-143l18 98h133q37 256 183.5 405.5t361.5 149.5q168 0 367 -102l-21 -105q-193 104 -346 105q-164 0 -279.5 -122t-148.5 -331h705l-19 -98h-696q-2 -18 -2 -57q0 -47 2 -74h674l-19 -99h-645q23 -131 61 -210 q49 -106 146.5 -171t210.5 -65q88 0 169 30.5t195 106.5v-112q-190 -129 -362 -129q-213 0 -356.5 147t-180.5 403h-151z" />
<glyph unicode="&#x2122;" horiz-adv-x="1925" d="M205 1378v84h635v-84h-265v-729h-104v729h-266zM934 649v813h153l203 -649h4l211 649h156v-813h-92v729h-4l-240 -729h-70l-225 729h-4v-729h-92z" />
<glyph unicode="&#xfb01;" horiz-adv-x="980" d="M25 840v80h168v114q0 186 84.5 283.5t244.5 97.5q143 0 226 -67.5t90 -190.5h-99q-8 88 -64.5 132t-148.5 44q-123 0 -179 -71.5t-56 -227.5v-114h190v-80h-190v-840h-98v840h-168zM739 0v920h99v-920h-99z" />
<glyph unicode="&#xfb02;" horiz-adv-x="980" d="M27 840v80h170v159q0 166 91 251t218 85q68 0 137 -31v-96q-92 31 -145 31q-100 0 -151.5 -64.5t-51.5 -171.5v-163h190v-80h-190v-840h-98v840h-170zM739 0v1397h99v-1397h-99z" />
<glyph unicode="&#xfb03;" horiz-adv-x="1368" d="M1126 0v920h99v-920h-99zM1126 1229v168h99v-168h-99zM515 840v80h170v151q0 166 96 255t223 89q70 0 168 -39v-92q-102 35 -166 35q-115 0 -169 -69.5t-54 -215.5v-114h178v-80h-178v-840h-98v840h-170zM23 840v80h170v151q0 166 96 255t223 89q70 0 168 -39v-92 q-102 35 -166 35q-115 0 -169 -69.5t-54 -215.5v-114h178v-80h-178v-840h-98v840h-170z" />
<glyph unicode="&#xfb04;" horiz-adv-x="1368" d="M1126 0v1397h99v-1397h-99zM515 840v80h170v151q0 166 96 255t223 89q70 0 168 -39v-92q-102 35 -166 35q-115 0 -169 -69.5t-54 -215.5v-114h178v-80h-178v-840h-98v840h-170zM23 840v80h170v151q0 166 96 255t223 89q70 0 168 -39v-92q-102 35 -166 35 q-115 0 -169 -69.5t-54 -215.5v-114h178v-80h-178v-840h-98v840h-170z" />
</font>
</defs>
</svg>
